Login
Username:
Password:
[Signup]
[Recover Account]


Browse Torrents

Poll


You must be logged in to view polls



Latest Torrents
The Mother In Law ...
- [Size: 447.31 MB]

Firebrand (2019) 7...
- [Size: 959.22 MB]

Wonder Park 2019 7...
- [Size: 1.77 GB]

Boo.2019.HDRip.Xvi...
- [Size: 1.30 GB]

Uri The Surgical S...
- [Size: 693.48 MB]


Torrent Details For "Kursk 2018 1080p BluRay x264 DTS 5.1 - Hon3yHD"

Kursk 2018 1080p BluRay x264 DTS 5.1 - Hon3yHD

Download this torrent | Magnet Download
Health:
Seeds: 24
Leechers: 115
Completed: 143 
Last Checked: 13-03-2019 18:26:40
External Torrent
Update Stats



Images Host

Poster
No poster


Watch-Free-HD     Download

Details
Name:Kursk 2018 1080p BluRay x264 DTS 5.1 - Hon3yHD
Description:



Kursk 2018 1080p BluRay x264 DTS 5.1 - Hon3yHD

Source : Remux @ Scene

Format                      : Matroska
Format version              : Version 4 / Version 2
File size                   : 4.37 GiB
Duration                    : 1 h 57 min
Overall bit rate            : 5 316 kb/s
Movie name                  : Kursk 2018 - Hon3yHD


Video
ID                          : 1
Format                      : AVC
Format/Info                 : Advanced Video Codec
Format profile              : [email protected]
Format settings, CABAC      : Yes
Format settings, ReFrames   : 5 frames
Codec ID                    : V_MPEG4/ISO/AVC
Duration                    : 1 h 57 min
Bit rate                    : 4 553 kb/s
Width                       : 1 920 pixels
Height                      : 804 pixels
Display aspect ratio        : 2.40:1
Frame rate mode             : Constant
Frame rate                  : 24.000 FPS
Color space                 : YUV
Chroma subsampling          : 4:2:0
Bit depth                   : 8 bits
Scan type                   : Progressive
Bits/(Pixel*Frame)          : 0.123
Stream size                 : 3.74 GiB (86%)
Writing library             : x264 core 157 r2935 545de2f
Encoding settings           : cabac=1 / ref=5 / deblock=1:-1:-1 / analyse=0x3:0x133 / me=umh / subme=9 / psy=1 / psy_rd=1.00:0.15 / mixed_ref=1 / me_range=24 / chroma_me=1 / trellis=2 / 8x8dct=1 / cqm=0 / deadzone=21,11 / fast_pskip=0 / chroma_qp_offset=-3 / threads=12 / lookahead_threads=1 / sliced_threads=0 / nr=200 / decimate=1 / interlaced=0 / bluray_compat=0 / constrained_intra=0 / bframes=3 / b_pyramid=2 / b_adapt=2 / b_bias=0 / direct=3 / weightb=1 / open_gop=0 / weightp=2 / keyint=250 / keyint_min=24 / scenecut=40 / intra_refresh=0 / rc_lookahead=60 / rc=2pass / mbtree=1 / bitrate=4553 / ratetol=1.0 / qcomp=0.60 / qpmin=0 / qpmax=69 / qpstep=4 / cplxblur=20.0 / qblur=0.5 / ip_ratio=1.40 / aq=1:1.00
Language                    : English
Default                     : Yes
Forced                      : No
Color range                 : Limited
Color primaries             : BT.709
Transfer characteristics    : BT.709
Matrix coefficients         : BT.709

Audio
ID                          : 2
Format                      : DTS
Format/Info                 : Digital Theater Systems
Mode                        : 16
Format settings, Endianness : Big
Codec ID                    : A_DTS
Duration                    : 1 h 57 min
Bit rate mode               : Constant
Bit rate                    : 768 kb/s
Channel(s)                  : 6 channels
Channel positions           : Front: L C R, Side: L R, LFE
Sampling rate               : 48.0 kHz
Frame rate                  : 93.750 FPS (512 spf)
Bit depth                   : 24 bits
Compression mode            : Lossy
Stream size                 : 646 MiB (14%)
Language                    : English
Default                     : Yes
Forced                      : No

Menu
00:00:00.000                : en:Chapter 01
00:10:35.000                : en:Chapter 02
00:20:02.000                : en:Chapter 03
00:31:43.000                : en:Chapter 04
00:38:38.000                : en:Chapter 05
00:48:32.000                : en:Chapter 06
00:59:55.000                : en:Chapter 07
01:08:57.000                : en:Chapter 08
01:18:16.000                : en:Chapter 09
01:28:53.000                : en:Chapter 10
01:38:18.000                : en:Chapter 11
01:47:32.000                : en:Chapter 12


 
 
 
 
 
Category:Movies > 1080P Bluray
Lang:English  English
Total Size:4.41 GB
Info Hash:657949ff5aa2e23507c4529f289f1972be3ada51
Added By:Hon3y
Date Added:12-03-2019 18:13:16
Downloads:653

Ratings:Not Yet Rated (Log in to rate it)


Tracker:
udp://tracker.opentrackr.org:1337/announce


File List: 


Comments

<< Previous      Next >>
1 - 2

[Report] Posted: 13-03-2019 at 07:03:45
wiki



Asalam O Alaikum...HOney Bro اپ کہاں غائب ہیں
بارے دن بعد نذر آے
But بہت اچھا لگا دیکھ کے
KEep It Up :love

[Report] Posted: 13-03-2019 at 10:33:16
FarzaD



thanks sir :love
waiting for Fantastic Beasts The Crimes Of Grindelwald 2018 EXTENDED and Mortal Engines 2018

1 - 2
<< Previous      Next >>


Top
Copyright 2018 Hon3yHD -|- UnblockSource -|- Page Generated In 0.853629 secs.
-|- RSS Feed -|- Feed Info